Скачать через торрент Три богатыря и Морской царь Фильм бесплатно в хорошем качестве torrent

Скачивайте на UnionPeer.org фильмы через торрент без регистрации. Новинки кино в хорошем качестве через торрент. На UnionPeer.org можно скачать через торрент фильмы 2014 и 2015 годов. Самые новые фильмы.

Скачать торрент Три богатыря и Морской царь бесплатно через .torrent фильм мультфильм сериал

Статистика раздачи
Размер:  1.37 GB   |    Зарегистрирован:  1 год 10 месяцев   |    .torrent скачан:  672 раза   |   
Раздают:  1  
   
загрузка...
 
Автор Сообщение

Galfimbul

avatar Galfimbul


Три богатыря и Морской царь
Год выпуска: 2016
Жанр: Мультфильм, комедия, приключения, детский, полнометражный
Выпущено: Россия, Кинокомпания СТВ, Анимационная студия Мельница
Продолжительность: 01:15:00
Язык: Русский

Режиссер: Константин Феоктистов
В ролях: Сергей Маковецкий, Дмитрий Высоцкий, Олег Куликович, Валерий Соловьёв, Дмитрий Быковский-Ромашов, Елена Шульман, Лия Медведева, Мария Цветкова-Овсянникова

О фильме: У богатырей семейные неурядицы. Чтобы развеяться, они решают по-быстрому сгонять в Китай за зубом дракона, символом мудрости и силы. В это же время князь Киевский отправляется на прогулку вместе с конем Юлием за сокровищами морского царя, чтобы пополнить казну и «залатать бюджет». Да вот только морской царь решил жениться и для этого утопил Киев. И как теперь быть? Что поможет нашим героям? Дружба, смелость и, конечно, любовь.



Качество: TS
Формат: AVI
Видео: XviD, 1913 Кбит/с, 720x304
Аудио: AC3, 2 ch, 384 Кбит/с
Полное имя : E:\V\Tri.BogatYrya.NEW.2O16.D.TS.14OOMB.avi
Формат : AVI
Формат/Информация : Audio Video Interleave
Размер файла : 1,37 Гбайт
Продолжительность : 1 ч. 12 м.
Общий поток : 2699 Кбит/сек
Программа кодирования : VirtualDubMod 1.5.10.2 (build 2540/release)
Библиотека кодирования : VirtualDubMod build 2540/release

Видео
Идентификатор : 0
Формат : MPEG-4 Visual
Профиль формата : Advanced Simple@L5
Параметр BVOP формата : 2
Параметр QPel формата : Нет
Параметр GMC формата : Без точки перехода
Параметр матрицы формата : Выборочная
Идентификатор кодека : XVID
Идентификатор кодека/Подсказка : XviD
Продолжительность : 1 ч. 12 м.
Битрейт : 1814 Кбит/сек
Ширина : 720 пикселей
Высота : 304 пикселя
Соотношение сторон : 2,35:1
Частота кадров : 29,970 (30000/1001) кадров/сек
Цветовое пространство : YUV
Субдискретизация насыщенности : 4:2:0
Битовая глубина : 8 бит
Тип развёртки : Прогрессивная
Метод сжатия : С потерями
Бит/(Пиксели*Кадры) : 0.276
Размер потока : 941 Мбайт (67%)
Библиотека кодирования : XviD 1.2.1 (UTC 2008-12-04)

Аудио #1
Идентификатор : 1
Формат : AC-3
Формат/Информация : Audio Coding 3
Расширение режима : CM (complete main)
Параметр Endianness формата : Big
Идентификатор кодека : 2000
Продолжительность : 1 ч. 12 м.
Вид битрейта : Постоянный
Битрейт : 384 Кбит/сек
Каналы : 2 канала
Расположение каналов : Front: L R
Частота : 48,0 КГц
Частота кадров : 31,250 кадров/сек (1536 spf)
Битовая глубина : 16 бит
Метод сжатия : С потерями
Размер потока : 199 Мбайт (14%)
Выравнивание : Разделение по промежуткам

Аудио #2
Идентификатор : 2
Формат : AC-3
Формат/Информация : Audio Coding 3
Расширение режима : CM (complete main)
Параметр Endianness формата : Big
Идентификатор кодека : 2000
Продолжительность : 1 ч. 12 м.
Вид битрейта : Постоянный
Битрейт : 384 Кбит/сек
Каналы : 2 канала
Расположение каналов : Front: L R
Частота : 48,0 КГц
Частота кадров : 31,250 кадров/сек (1536 spf)
Битовая глубина : 16 бит
Метод сжатия : С потерями
Размер потока : 199 Мбайт (14%)
Выравнивание : Разделение по промежуткам


Трекер:  [ 26-Дек-2016 23:03 ]

  

Скачать .torrent

Размер .torrent файла 14 KB


Размер: 1.37 GB
Хэш (hash) релиза: e7bcccc444ba2142a44f50367630745c6c1bf76b
Подписка на обновления:

Торренты, похожие на Три богатыря и Морской царь скачать торрент

Форум Название Автор Размер S L Добавлен
Мультфильмы до 2016 ·· Три богатыря и Морской царь (Константин Феоктистов) [2016, Россия, Мультфильм, приключения, семейный, WEB-DLRip] Galfimbul 783083240747 MB 0 0 1486038614

15:30

2-Фев-17

Мультфильмы до 2016 ·· Три богатыря и Морской царь (Константин Феоктистов / Konstantin Feoktistov) [2016, Россия, Мультипликация, WEB-DL 1080p] Galfimbul 30363132862.83 GB 0 0 1486031484

13:31

2-Фев-17

Мультфильмы до 2016 ·· Три богатыря и Морской царь (Константин Феоктистов) [2016, Мультфильм, комедия, приключения, WEB-DLRip] Galfimbul 14697185281.37 GB 0 0 1485994922

03:22

2-Фев-17

Мультфильмы 2016-2018 (Новинки мультфильмов) ·· Три богатыря и Морской царь (Константин Феоктистов) [2017, мультфильм, комедия, приключения, фэнтези, WEB-DLRip] iTunes Galfimbul 14675129701.37 GB 0 0 1485988833

01:40

2-Фев-17

Мультфильмы 2016-2018 (Новинки мультфильмов) ·· Три богатыря и Морской царь (Константин Феоктистов) [2017, мультфильм, комедия, приключения, фэнтези, WEB-DL 1080p] iTunes Galfimbul 30363132862.83 GB 0 0 1485983972

00:19

2-Фев-17

Мультфильмы 2016-2018 (Новинки мультфильмов) ·· Три богатыря и Морской царь (Константин Феоктистов) [2017, мультфильм, комедия, приключения, фэнтези, CAMRip *PROPER*] Galfimbul 13959044021.3 GB 0 0 1482853475

18:44

27-Дек-16

Трейлеры и дополнительные материалы ·· Три богатыря и Морской царь (Константин Феоктистов) [2017, мультфильм, комедия, приключения, фэнтези WEBRip-1080p] Трейлер Galfimbul 115917582111 MB 0 0 1482686342

20:19

25-Дек-16

Трейлеры и дополнительные материалы ·· Три богатыря и Морской царь (Константин Феоктистов) [2017, мультфильм, комедия, приключения, фэнтези HDRip-1080p] Тизер Galfimbul 1083127510 MB 0 0 1465232352

19:59

6-Июн-16

Еще никто не оставлял запись к записи скачать торрент Три богатыря и Морской царь . Будь первым!

!Обратная связь