Скачать через торрент Смешарики. Легенда о золотом драконе Фильм бесплатно в хорошем качестве torrent

Скачивайте на UnionPeer.org фильмы через торрент без регистрации. Новинки кино в хорошем качестве через торрент. На UnionPeer.org можно скачать через торрент фильмы 2014 и 2015 годов. Самые новые фильмы.

Скачать торрент Смешарики. Легенда о золотом драконе бесплатно через .torrent фильм мультфильм сериал

Статистика раздачи
Размер:  2.74 GB   |    Зарегистрирован:  2 года 6 месяцев   |    .torrent скачан:  540 раз   |   
Раздают:  1  
   
загрузка...
 
Автор Сообщение

Galfimbul

avatar Galfimbul


Название: Смешарики. Легенда о золотом драконе
Оригинальное название: Смешарики. Легенда о золотом драконе
Год выхода: 2016
Жанр: мультфильм, приключения, комедия
Режиссер: Денис Чернов
В ролях: Михаил Черняк, Сергей Мардарь, Антон Виноградов, Владимир Постников, Светлана Письмиченко, Вадим Бочанов, Гарик Харламов, Дмитрий Нагиев, Елена Шульман, Владимир Маслаков

О фильме: Выдающийся учёный и его команда отправляются в самое сердце диких джунглей, где их ждут опасные приключения, свирепые туземцы и расхитители гробниц, до зубов вооруженные гаджетами.



Выпущено: Россия
Продолжительность: 01:20:17
Озвучивание: Оригинал [iTunes]

Файл
Формат: MKV
Качество: WEB-DL 1080p
Видео: MPEG-4 AVC, 4404 kb/s, 1912x796
Аудио: AC3, 384 kb/s (6 ch)
Format : Matroska
Format version : Version 4 / Version 2
File size : 2.74 GiB
Duration : 1h 20mn
Overall bit rate : 4 886 Kbps
Encoded date : UTC 2016-04-20 18:34:03
Writing application : mkvmerge v8.3.0 ('Over the Horizon') 64bit
Writing library : libebml v1.3.1 + libmatroska v1.4.2
DURATION : 01:20:17.376000000
NUMBER_OF_FRAMES : 150543
NUMBER_OF_BYTES : 231234048
_STATISTICS_WRITING_APP : mkvmerge v8.3.0 ('Over the Horizon') 64bit
_STATISTICS_WRITING_DATE_UTC : 2016-04-20 18:34:03
_STATISTICS_TAGS : BPS DURATION NUMBER_OF_FRAMES NUMBER_OF_BYTES

Video
ID : 1
Format : AVC
Format/Info : Advanced Video Codec
Format profile : High@L4
Format settings, CABAC : Yes
Format settings, ReFrames : 5 frames
Codec ID : V_MPEG4/ISO/AVC
Duration : 1h 20mn
Bit rate : 4 404 Kbps
Width : 1 912 pixels
Height : 796 pixels
Display aspect ratio : 2.40:1
Frame rate mode : Constant
Frame rate : 23.976 fps
Color space : YUV
Chroma subsampling : 4:2:0
Bit depth : 8 bits
Scan type : Progressive
Bits/(Pixel*Frame) : 0.121
Stream size : 2.47 GiB (90%)
Language : English
Default : Yes
Forced : No
Color range : Limited
Color primaries : BT.709
Transfer characteristics : BT.709
Matrix coefficients : BT.709

Audio
ID : 2
Format : AC-3
Format/Info : Audio Coding 3
Mode extension : CM (complete main)
Format settings, Endianness : Big
Codec ID : A_AC3
Duration : 1h 20mn
Bit rate mode : Constant
Bit rate : 384 Kbps
Channel(s) : 6 channels
Channel positions : Front: L C R, Side: L R, LFE
Sampling rate : 48.0 KHz
Bit depth : 16 bits
Compression mode : Lossy
Stream size : 221 MiB (8%)
Language : Russian
Default : Yes
Forced : No

Menu
00:00:00.000 : en:1
00:02:26.000 : en:2
00:12:38.000 : en:3
00:20:06.000 : en:4
00:30:21.000 : en:5
00:41:12.000 : en:6
00:52:53.000 : en:7
01:01:34.000 : en:8
01:14:38.000 : en:9








Трекер:  [ 14-Май-2016 16:00 ]

  

Скачать .torrent

Размер .torrent файла 28 KB


Размер: 2.74 GB
Хэш (hash) релиза: e51108b7874a9a897159fbb7623ec7dec086149b
Подписка на обновления:

Торренты, похожие на Смешарики. Легенда о золотом драконе скачать торрент

Форум Название Автор Размер S L Добавлен
Мультфильмы до 2016 ·· Смешарики. Легенда о золотом драконе / Смешарики. Легенда о золотом драконе (Денис Чернов) [2016, Россия, мультфильм, приключения, комедия, Blu-ray disc] Galfimbul 1729089193616.1 GB 0 0 1467714175

13:22

5-Июл-16

Мультфильмы до 2016 ·· Смешарики. Легенда о золотом драконе (Денис Чернов) [2016, Россия, мультфильм, приключения, комедия, WEB-DLRip-AVC] Galfimbul 15656377121.46 GB 0 0 1470124208

10:50

2-Авг-16

Мультфильмы до 2016 ·· Смешарики. Легенда о золотом драконе (Денис Чернов) [2016, Россия, мультфильм, приключения, комедия, BDRip 1080p] Galfimbul 66724585366.21 GB 0 0 1470054529

15:28

1-Авг-16

Мультфильмы до 2016 ·· Смешарики. Легенда о золотом драконе (Денис Чернов) [2016, Мультфильм, приключения, комедия, HDRip] Galfimbul 784836608748 MB 0 0 1470054348

15:25

1-Авг-16

Мультфильмы до 2016 ·· Смешарики. Легенда о золотом драконе (Денис Чернов) [2016, Россия, мультфильм, приключения, комедия, BDRip 720p] Galfimbul 35916996153.35 GB 0 0 1470052256

14:50

1-Авг-16

3D Мультфильмы ·· Смешарики. Легенда о золотом драконе в 3D (Денис Чернов) [2016, Россия, мультфильм, приключения, комедия, Blu-ray Disc 1080p] BD3D [RUS] Galfimbul 2297036800021.39 GB 0 0 1465635367

11:56

11-Июн-16

3D Мультфильмы ·· Смешарики. Легенда о золотом драконе в 3Д / 3D (Денис Чернов) [2016, Мультфильм, Приключения, Комедия, BDrip-AVC] Half OverUnder / Вертикальная анаморфная стереопара Galfimbul 80688060967.51 GB 0 0 1465635341

11:55

11-Июн-16

Мультфильмы 2016-2018 (Новинки мультфильмов) ·· Смешарики. Легенда о золотом драконе (Денис Чернов) [2016, Россия, мультфильм, приключения, комедия, НDRip] Лицензия Galfimbul 14676275201.37 GB 0 0 1464172839

13:40

25-Май-16

Мультфильмы 2016-2018 (Новинки мультфильмов) ·· Смешарики. Легенда о золотом драконе (Денис Чернов) [2016, Россия, мультфильм, приключения, комедия, WEB-DLRip] iTunes Galfimbul 14657474561.37 GB 0 0 1463231798

16:16

14-Май-16

Мультфильмы до 2016 ·· Смешарики. Легенда о золотом драконе (Денис Чернов) [2016, Россия, мультфильм, приключения, комедия, WEB-DLRip-AVC] Galfimbul 782402661746 MB 0 0 1461319091

12:58

22-Апр-16

Мультфильмы до 2016 ·· Смешарики. Легенда о золотом драконе (Денис Чернов) [2016, Мультфильм, приключения, комедия, WEB-DLRip] Galfimbul 15579156481.45 GB 0 0 1461214071

07:47

21-Апр-16

Мультфильмы до 2016 ·· Смешарики. Легенда о золотом драконе (Денис Чернов) [2016, Россия, Мультфильм, приключения, комедия, WEB-DLRip] Galfimbul 733775872700 MB 0 0 1461193013

01:56

21-Апр-16

Мультфильмы до 2016 ·· Смешарики. Легенда о золотом драконе (Денис Чернов) [2016, Россия, Мультфильм, приключения, комедия, WEB-DL 1080p] Galfimbul 29420111042.74 GB 0 0 1461191285

01:28

21-Апр-16

Мультфильмы до 2016 ·· Смешарики. Легенда о золотом драконе (Денис Чернов) [2016, Россия, Мультфильм, приключения, комедия, WEB-DL 720p] Galfimbul 26596851262.48 GB 0 0 1461191278

01:27

21-Апр-16

Мультфильмы до 2016 ·· Смешарики. Легенда о золотом драконе (Денис Чернов) [2016, Россия, Мультфильм, приключения, комедия, WEB-DLRip] Galfimbul 14657474561.37 GB 0 0 1461189249

00:54

21-Апр-16

Еще никто не оставлял запись к записи скачать торрент Смешарики. Легенда о золотом драконе . Будь первым!

!Обратная связь